Gipsy Kings - Live at Kenwood House in London [2004, Flamenco, Rumba, SD Blu-ray, 1080p]

Страницы:  1

Ответить
Автор
Сообщение

CHKA1961

Moderator gray

Стаж: 12 лет

Сообщений: 6924

CHKA1961 · 03-Ноя-16 07:33 (2 года 8 месяцев назад)

Gipsy Kings - Live at Kenwood House in London
Страна: France
Жанр: Flamenco, Rumba
Продолжительность: 01:41:59+00:14:45+00:26:58
Год выпуска: 2004
Лейбл: Winner
Описание: In this dynamic concert video recorded (in high definition) at London's famed Kenwood House in 2004, the Gipsy Kings -- trailblazers in the flamenco genre -- rev up the crowd with a searing set list of tunes. Among the selections are "Lleva Me El Compas," "Bolerias," "Volare" "Rumba Tech," "Petite Noya," "Baila Me," "Fandangos," "Como Siento Yo" and "Djobi Djoba." Extras include footage of the group rehearsing.
Nicolas Reyes (lead vocals, guitar), Tonino Baliardo (lead guitar), Canut Reyes ( backup vocals, guitar), Patchai Reyes (backup vocals, guitar), Andre Reyes (backup vocals, guitar), Paul Reyes (guitar). Xavier Padilla (bass), Stephane Lambotte (drums), Rodelfo Pacheco (precussion), Cyril Barbessol (keyboards)
Лидеры жанра, Gipsy Kings, на протяжении 16 лет заставляли трепетать сердца в разных уголках мира. Вашему вниманию предлагается концерт, записанный на легендарной сцене Кенвуд Хаус в Лондоне. В величественных декорациях над водой, перед тысячами поклонников, Gipsy Kings исполняют некоторые из величайших своих хитов, включая "Balla Me" и "Volare".
Треклист:
1. Rhythmic
2. Rumba Tech
3. Lleve Me El Compas
4. Tristessa
5. Amigo
6. Petite Noya
7. Como Siento Yo
8. Sabroso
9. Como Ayer
10. A Mi Mora
11. Jobi Joba
12. Boleria
13. Fandangos
14. Legende
15. Quiero Saber
16. Tampa
17. Poquito a Poco
18. Baila Me
19. Todos Todos
20. Bamboleo
21. Volare
EXTRAS:
Recording sessions
History montage
Trailers
Доп. информация: Источник - HDclub.
Группа The Gipsy Kings, сыгравшая важную роль в деле популяризации стиля фламенко, появилась на свет в деревне Арле, что на юге Франции. Ее организовали братья Николас и Андрэ Рэйес, сыновья исполнителя фламенко Хосе Рейеса, которые привлекли к участию в группе и своих кузенов – Жака, Мориса и Тонино Бальярдо. Сначала группу назвали Los Reyes, но, поскольку команда постоянно переезжала с места на место, играя на свадьбах, вечеринках и даже просто на улицах, вела бродячую жизнь, подобно цыганам, то коллектив решено было переименовать в Gipsy Kings. Музыканты исполняли традиционное фламенко, на первом плане была многоярусная гитарная фактура, в которая особенно выделялась отточенная лидер-партия Тонино, и страстный голос Николаса.
Качество: SD Blu-ray
Разрешение видео/развертка: 1080p
Контейнер: BDMV
Видео кодек: H.264; MPEG-2
Аудио кодек: AC3; DTS-HD MA
Видео: MPEG-4 AVC Video / 19983 kbps / 1080p / 23,976 fps / 16:9 / High Profile 4.1
Видео2: MPEG-2 Video / 6000 kbps / 480i / 29,970 fps / 4:3 (Recording sessions, History montage)
Аудио: Spanish / Dolby Digital Audio / 5.1 / 48 kHz / 448 kbps
Аудио2: DTS-HD Master Audio / 5.1 / 48 kHz / 2672 kbps / 16-bit (DTS Core: 5.1 / 48 kHz / 1509 kbps / 16-bit)
Аудио3: Spanish / Dolby Digital Audio / 2.0 / 48 kHz / 384 kbps
Аудио4: Spanish / Dolby Digital Audio / 2.0 / 48 kHz / 224 kbps / DN -4dB (EXTRAS)
Отчёт MediaInfo / BDInfo
Disc Title:     GIPSY_KINGS
Disc Size: 24 317 574 608 bytes
Protection: AACS
BD-Java: No
BDInfo: 0.5.8
Notes:
BDINFO HOME:
Cinema Squid
http://www.cinemasquid.com/blu-ray/tools/bdinfo
INCLUDES FORUMS REPORT FOR:
AVS Forum Blu-ray Audio and Video Specifications Thread
http://www.avsforum.com/avs-vb/showthread.php?t=1155731
********************
PLAYLIST: 00000.MPLS
********************
<--- BEGIN FORUMS PASTE --->
Код:
Total   Video
Title                                                           Codec   Length  Movie Size      Disc Size       Bitrate Bitrate Main Audio Track                          Secondary Audio Track
-----                                                           ------  ------- --------------  --------------  ------- ------- ------------------                        ---------------------
00000.MPLS                                                      AVC     1:41:59 19 018 352 640  24 317 574 608  24,86   19,98   DD AC3 5.1 448Kbps                        DTS-HD Master 5.1 2672Kbps (48kHz/16-bit)
Код:
DISC INFO:
Disc Title:     GIPSY_KINGS
Disc Size:      24 317 574 608 bytes
Protection:     AACS
BD-Java:        No
BDInfo:         0.5.8
PLAYLIST REPORT:
Name:                   00000.MPLS
Length:                 1:41:59.196 (h:m:s.ms)
Size:                   19 018 352 640 bytes
Total Bitrate:          24,86 Mbps
VIDEO:
Codec                   Bitrate             Description
-----                   -------             -----------
MPEG-4 AVC Video        19983 kbps          1080p / 23,976 fps / 16:9 / High Profile 4.1
AUDIO:
Codec                           Language        Bitrate         Description
-----                           --------        -------         -----------
Dolby Digital Audio             Spanish         448 kbps        5.1 / 48 kHz / 448 kbps
DTS-HD Master Audio             Spanish         2672 kbps       5.1 / 48 kHz / 2672 kbps / 16-bit (DTS Core: 5.1 / 48 kHz / 1509 kbps / 16-bit)
Dolby Digital Audio             Spanish         384 kbps        2.0 / 48 kHz / 384 kbps
FILES:
Name            Time In         Length          Size            Total Bitrate
----            -------         ------          ----            -------------
00000.M2TS      0:00:00.000     0:50:36.074     9 463 400 448   24 936
00001.M2TS      0:50:36.074     0:51:23.121     9 554 952 192   24 793
CHAPTERS:
Number          Time In         Length          Avg Video Rate  Max 1-Sec Rate  Max 1-Sec Time  Max 5-Sec Rate  Max 5-Sec Time  Max 10Sec Rate  Max 10Sec Time  Avg Frame Size  Max Frame Size  Max Frame Time
------          -------         ------          --------------  --------------  --------------  --------------  --------------  --------------  --------------  --------------  --------------  --------------
1               0:00:00.000     0:04:39.779     19 862 kbps     34 916 kbps     00:00:26.901    30 664 kbps     00:00:45.044    26 940 kbps     00:03:14.485    103 538 bytes   581 569 bytes   00:02:03.373
2               0:04:39.779     0:04:09.165     18 529 kbps     34 979 kbps     00:08:46.400    32 914 kbps     00:08:42.897    26 890 kbps     00:08:38.935    96 600 bytes    670 904 bytes   00:08:46.442
3               0:08:48.945     0:04:40.196     20 611 kbps     37 705 kbps     00:13:21.425    32 920 kbps     00:13:21.300    28 243 kbps     00:13:17.880    107 458 bytes   657 292 bytes   00:13:21.467
4               0:13:29.141     0:04:34.357     19 204 kbps     41 704 kbps     00:17:55.908    32 766 kbps     00:17:55.866    29 761 kbps     00:14:56.729    100 123 bytes   801 315 bytes   00:17:55.949
5               0:18:03.499     0:04:32.855     18 862 kbps     34 853 kbps     00:20:17.382    30 716 kbps     00:20:30.395    28 713 kbps     00:20:29.519    98 338 bytes    666 032 bytes   00:20:14.463
6               0:22:36.355     0:03:37.967     21 172 kbps     37 276 kbps     00:26:09.276    31 268 kbps     00:26:09.276    26 382 kbps     00:24:56.244    110 383 bytes   821 415 bytes   00:26:09.317
7               0:26:14.322     0:04:22.136     19 386 kbps     32 064 kbps     00:29:42.906    29 519 kbps     00:29:40.445    27 128 kbps     00:29:37.358    101 068 bytes   394 936 bytes   00:30:36.459
8               0:30:36.459     0:07:33.202     19 819 kbps     42 264 kbps     00:37:59.568    33 089 kbps     00:32:04.380    27 979 kbps     00:37:59.568    103 329 bytes   743 227 bytes   00:37:59.652
9               0:38:09.662     0:03:59.280     21 569 kbps     35 034 kbps     00:42:01.393    32 256 kbps     00:42:00.100    29 552 kbps     00:41:58.933    112 453 bytes   609 742 bytes   00:42:00.184
10              0:42:08.943     0:03:49.646     20 311 kbps     35 593 kbps     00:45:50.080    32 742 kbps     00:45:48.495    30 406 kbps     00:45:48.495    105 892 bytes   599 456 bytes   00:45:48.579
11              0:45:58.589     0:04:37.485     21 093 kbps     34 490 kbps     00:46:35.709    28 002 kbps     00:49:27.422    26 423 kbps     00:49:27.422    109 970 bytes   799 951 bytes   00:49:58.495
12              0:50:36.074     0:04:47.578     18 126 kbps     34 289 kbps     00:55:13.018    32 403 kbps     00:55:12.559    26 592 kbps     00:55:07.595    94 500 bytes    526 398 bytes   00:54:57.752
13              0:55:23.653     0:04:43.825     18 774 kbps     33 290 kbps     00:58:09.819    27 589 kbps     00:58:05.815    25 537 kbps     00:56:44.150    97 877 bytes    444 225 bytes   00:58:00.393
14              1:00:07.478     0:04:51.541     17 156 kbps     29 262 kbps     01:00:23.536    27 698 kbps     01:03:03.529    23 665 kbps     01:03:02.069    89 446 bytes    328 344 bytes   01:04:54.015
15              1:04:59.020     0:04:50.290     22 050 kbps     38 002 kbps     01:08:48.707    30 208 kbps     01:08:46.288    27 197 kbps     01:05:30.384    114 959 bytes   618 462 bytes   01:08:48.833
16              1:09:49.310     0:04:30.019     21 962 kbps     33 189 kbps     01:13:29.738    30 013 kbps     01:10:58.337    27 661 kbps     01:10:55.167    114 500 bytes   507 875 bytes   01:13:28.612
17              1:14:19.329     0:03:45.683     20 128 kbps     34 123 kbps     01:17:43.241    29 260 kbps     01:16:17.447    25 359 kbps     01:17:19.885    104 937 bytes   538 250 bytes   01:16:17.322
18              1:18:05.013     0:05:07.890     22 658 kbps     36 029 kbps     01:19:31.850    28 692 kbps     01:18:07.474    26 983 kbps     01:21:19.624    118 128 bytes   573 679 bytes   01:19:31.892
19              1:23:12.904     0:05:02.176     21 678 kbps     34 910 kbps     01:26:16.588    30 867 kbps     01:26:12.584    26 734 kbps     01:26:07.579    113 019 bytes   510 848 bytes   01:24:02.412
20              1:28:15.081     0:07:41.794     19 126 kbps     37 946 kbps     01:35:11.205    31 771 kbps     01:35:09.703    28 452 kbps     01:35:07.868    99 716 bytes    534 149 bytes   01:31:04.333
21              1:35:56.876     0:06:02.320     18 715 kbps     36 990 kbps     01:41:35.172    32 750 kbps     01:41:34.838    28 827 kbps     01:41:06.935    97 583 bytes    494 348 bytes   01:37:33.597
STREAM DIAGNOSTICS:
File            PID             Type            Codec           Language                Seconds                 Bitrate                 Bytes           Packets
----            ---             ----            -----           --------                --------------          --------------          -------------   -----
00000.M2TS      4113 (0x1011)   0x1B            AVC                                     3035,950                20 001                  7 590 217 428   41 293 633
00000.M2TS      4352 (0x1100)   0x81            AC3             spa (Spanish)           3035,950                448                     170 021 376     948 780
00000.M2TS      4353 (0x1101)   0x86            DTS-HD MA       spa (Spanish)           3035,950                2 724                   1 033 675 052   6 090 485
00000.M2TS      4354 (0x1102)   0x81            AC3             spa (Spanish)           3035,950                384                     145 732 608     853 902
00001.M2TS      4113 (0x1011)   0x1B            AVC                                     3082,997                19 966                  7 694 566 129   41 861 384
00001.M2TS      4352 (0x1100)   0x81            AC3             spa (Spanish)           3082,997                448                     172 655 616     963 480
00001.M2TS      4353 (0x1101)   0x86            DTS-HD MA       spa (Spanish)           3082,997                2 621                   1 010 254 284   5 970 058
00001.M2TS      4354 (0x1102)   0x81            AC3             spa (Spanish)           3082,997                384                     147 990 528     867 132
<---- END FORUMS PASTE ---->
QUICK SUMMARY:
Disc Title: GIPSY_KINGS
Disc Size: 24 317 574 608 bytes
Protection: AACS
BD-Java: No
Playlist: 00000.MPLS
Size: 19 018 352 640 bytes
Length: 1:41:59.196
Total Bitrate: 24,86 Mbps
Video: MPEG-4 AVC Video / 19983 kbps / 1080p / 23,976 fps / 16:9 / High Profile 4.1
Audio: Spanish / Dolby Digital Audio / 5.1 / 48 kHz / 448 kbps
Audio: Spanish / DTS-HD Master Audio / 5.1 / 48 kHz / 2672 kbps / 16-bit (DTS Core: 5.1 / 48 kHz / 1509 kbps / 16-bit)
Audio: Spanish / Dolby Digital Audio / 2.0 / 48 kHz / 384 kbps
********************
PLAYLIST: 00006.MPLS
********************
<--- BEGIN FORUMS PASTE --->
Код:
Total   Video
Title                                                           Codec   Length  Movie Size      Disc Size       Bitrate Bitrate Main Audio Track                          Secondary Audio Track
-----                                                           ------  ------- --------------  --------------  ------- ------- ------------------                        ---------------------
00006.MPLS                                                      MPEG-2  0:12:33 619 634 688     24 317 574 608  6,58    6,00    DD AC3 2.0 224Kbps
Код:
DISC INFO:
Disc Title:     GIPSY_KINGS
Disc Size:      24 317 574 608 bytes
Protection:     AACS
BD-Java:        No
BDInfo:         0.5.8
PLAYLIST REPORT:
Name:                   00006.MPLS
Length:                 0:12:33.486 (h:m:s.ms)
Size:                   619 634 688 bytes
Total Bitrate:          6,58 Mbps
VIDEO:
Codec                   Bitrate             Description
-----                   -------             -----------
MPEG-2 Video            6000 kbps           480i / 29,970 fps / 4:3
AUDIO:
Codec                           Language        Bitrate         Description
-----                           --------        -------         -----------
Dolby Digital Audio             Spanish         224 kbps        2.0 / 48 kHz / 224 kbps / DN -4dB
FILES:
Name            Time In         Length          Size            Total Bitrate
----            -------         ------          ----            -------------
00008.M2TS      0:00:00.000     0:12:33.486     619 634 688     6 579
CHAPTERS:
Number          Time In         Length          Avg Video Rate  Max 1-Sec Rate  Max 1-Sec Time  Max 5-Sec Rate  Max 5-Sec Time  Max 10Sec Rate  Max 10Sec Time  Avg Frame Size  Max Frame Size  Max Frame Time
------          -------         ------          --------------  --------------  --------------  --------------  --------------  --------------  --------------  --------------  --------------  --------------
1               0:00:00.000     0:01:55.181     6 009 kbps      6 776 kbps      00:00:21.521    6 167 kbps      00:01:09.836    6 094 kbps      00:00:43.009    25 055 bytes    122 480 bytes   00:00:26.025
2               0:01:55.181     0:01:59.119     5 999 kbps      6 587 kbps      00:02:47.467    6 125 kbps      00:02:43.463    6 073 kbps      00:02:02.121    25 021 bytes    106 040 bytes   00:02:12.131
3               0:03:54.300     0:03:15.695     6 000 kbps      6 495 kbps      00:06:10.370    6 143 kbps      00:07:04.557    6 098 kbps      00:06:16.709    25 026 bytes    96 832 bytes    00:06:16.876
4               0:07:09.996     0:02:45.665     5 999 kbps      6 631 kbps      00:08:28.908    6 147 kbps      00:09:07.713    6 071 kbps      00:09:02.708    25 021 bytes    109 344 bytes   00:07:26.445
5               0:09:55.661     0:02:37.824     5 994 kbps      6 623 kbps      00:12:19.505    6 158 kbps      00:12:15.735    6 092 kbps      00:12:15.234    25 006 bytes    115 720 bytes   00:12:23.742
STREAM DIAGNOSTICS:
File            PID             Type            Codec           Language                Seconds                 Bitrate                 Bytes           Packets
----            ---             ----            -----           --------                --------------          --------------          -------------   -----
00008.M2TS      4113 (0x1011)   0x02            MPEG-2                                  753,453                 6 000                   565 092 988     3 084 285
00008.M2TS      4352 (0x1100)   0x81            AC3             spa (Spanish)           753,453                 224                     21 093 632      117 710
<---- END FORUMS PASTE ---->
QUICK SUMMARY:
Disc Title: GIPSY_KINGS
Disc Size: 24 317 574 608 bytes
Protection: AACS
BD-Java: No
Playlist: 00006.MPLS
Size: 619 634 688 bytes
Length: 0:12:33.486
Total Bitrate: 6,58 Mbps
Video: MPEG-2 Video / 6000 kbps / 480i / 29,970 fps / 4:3
Audio: Spanish / Dolby Digital Audio / 2.0 / 48 kHz / 224 kbps / DN -4dB
********************
PLAYLIST: 00010.MPLS
********************
<--- BEGIN FORUMS PASTE --->
Код:
Total   Video
Title                                                           Codec   Length  Movie Size      Disc Size       Bitrate Bitrate Main Audio Track                          Secondary Audio Track
-----                                                           ------  ------- --------------  --------------  ------- ------- ------------------                        ---------------------
00010.MPLS                                                      AVC     0:08:00 1 146 249 216   24 317 574 608  19,10   18,01   DD AC3 2.0 224Kbps
Код:
DISC INFO:
Disc Title:     GIPSY_KINGS
Disc Size:      24 317 574 608 bytes
Protection:     AACS
BD-Java:        No
BDInfo:         0.5.8
PLAYLIST REPORT:
Name:                   00010.MPLS
Length:                 0:08:00.021 (h:m:s.ms)
Size:                   1 146 249 216 bytes
Total Bitrate:          19,10 Mbps
VIDEO:
Codec                   Bitrate             Description
-----                   -------             -----------
MPEG-4 AVC Video        18007 kbps          1080p / 23,976 fps / 16:9 / High Profile 4.1
AUDIO:
Codec                           Language        Bitrate         Description
-----                           --------        -------         -----------
Dolby Digital Audio             Spanish         224 kbps        2.0 / 48 kHz / 224 kbps / DN -4dB
FILES:
Name            Time In         Length          Size            Total Bitrate
----            -------         ------          ----            -------------
00013.M2TS      0:00:00.000     0:08:00.021     1 146 249 216   19 103
CHAPTERS:
Number          Time In         Length          Avg Video Rate  Max 1-Sec Rate  Max 1-Sec Time  Max 5-Sec Rate  Max 5-Sec Time  Max 10Sec Rate  Max 10Sec Time  Avg Frame Size  Max Frame Size  Max Frame Time
------          -------         ------          --------------  --------------  --------------  --------------  --------------  --------------  --------------  --------------  --------------  --------------
1               0:00:00.000     0:08:00.021     18 007 kbps     29 611 kbps     00:07:55.266    26 309 kbps     00:06:53.746    24 427 kbps     00:06:48.699    93 881 bytes    367 995 bytes   00:07:56.225
STREAM DIAGNOSTICS:
File            PID             Type            Codec           Language                Seconds                 Bitrate                 Bytes           Packets
----            ---             ----            -----           --------                --------------          --------------          -------------   -----
00013.M2TS      4113 (0x1011)   0x1B            AVC                                     479,938                 18 010                  1 080 481 957   5 878 941
00013.M2TS      4352 (0x1100)   0x81            AC3             spa (Spanish)           479,938                 224                     13 440 896      75 005
<---- END FORUMS PASTE ---->
QUICK SUMMARY:
Disc Title: GIPSY_KINGS
Disc Size: 24 317 574 608 bytes
Protection: AACS
BD-Java: No
Playlist: 00010.MPLS
Size: 1 146 249 216 bytes
Length: 0:08:00.021
Total Bitrate: 19,10 Mbps
Video: MPEG-4 AVC Video / 18007 kbps / 1080p / 23,976 fps / 16:9 / High Profile 4.1
Audio: Spanish / Dolby Digital Audio / 2.0 / 48 kHz / 224 kbps / DN -4dB
********************
PLAYLIST: 00007.MPLS
********************
<--- BEGIN FORUMS PASTE --->
Код:
Total   Video
Title                                                           Codec   Length  Movie Size      Disc Size       Bitrate Bitrate Main Audio Track                          Secondary Audio Track
-----                                                           ------  ------- --------------  --------------  ------- ------- ------------------                        ---------------------
00007.MPLS                                                      AVC     0:06:00 861 898 752     24 317 574 608  19,10   18,00   DD AC3 2.0 224Kbps
Код:
DISC INFO:
Disc Title:     GIPSY_KINGS
Disc Size:      24 317 574 608 bytes
Protection:     AACS
BD-Java:        No
BDInfo:         0.5.8
PLAYLIST REPORT:
Name:                   00007.MPLS
Length:                 0:06:00.993 (h:m:s.ms)
Size:                   861 898 752 bytes
Total Bitrate:          19,10 Mbps
VIDEO:
Codec                   Bitrate             Description
-----                   -------             -----------
MPEG-4 AVC Video        17999 kbps          1080i / 29,970 fps / 16:9 / High Profile 4.1
AUDIO:
Codec                           Language        Bitrate         Description
-----                           --------        -------         -----------
Dolby Digital Audio             Spanish         224 kbps        2.0 / 48 kHz / 224 kbps / DN -4dB
FILES:
Name            Time In         Length          Size            Total Bitrate
----            -------         ------          ----            -------------
00010.M2TS      0:00:00.000     0:06:00.993     861 898 752     19 101
CHAPTERS:
Number          Time In         Length          Avg Video Rate  Max 1-Sec Rate  Max 1-Sec Time  Max 5-Sec Rate  Max 5-Sec Time  Max 10Sec Rate  Max 10Sec Time  Avg Frame Size  Max Frame Size  Max Frame Time
------          -------         ------          --------------  --------------  --------------  --------------  --------------  --------------  --------------  --------------  --------------  --------------
1               0:00:00.000     0:06:00.993     17 999 kbps     43 638 kbps     00:02:26.045    28 474 kbps     00:02:22.876    24 083 kbps     00:03:49.729    75 073 bytes    297 642 bytes   00:02:42.128
STREAM DIAGNOSTICS:
File            PID             Type            Codec           Language                Seconds                 Bitrate                 Bytes           Packets
----            ---             ----            -----           --------                --------------          --------------          -------------   -----
00010.M2TS      4113 (0x1011)   0x1B            AVC                                     360,861                 18 006                  812 211 648     4 420 541
00010.M2TS      4352 (0x1100)   0x81            AC3             spa (Spanish)           360,861                 224                     10 108 672      56 410
<---- END FORUMS PASTE ---->
QUICK SUMMARY:
Disc Title: GIPSY_KINGS
Disc Size: 24 317 574 608 bytes
Protection: AACS
BD-Java: No
Playlist: 00007.MPLS
Size: 861 898 752 bytes
Length: 0:06:00.993
Total Bitrate: 19,10 Mbps
Video: MPEG-4 AVC Video / 17999 kbps / 1080i / 29,970 fps / 16:9 / High Profile 4.1
Audio: Spanish / Dolby Digital Audio / 2.0 / 48 kHz / 224 kbps / DN -4dB
********************
PLAYLIST: 00008.MPLS
********************
<--- BEGIN FORUMS PASTE --->
Код:
Total   Video
Title                                                           Codec   Length  Movie Size      Disc Size       Bitrate Bitrate Main Audio Track                          Secondary Audio Track
-----                                                           ------  ------- --------------  --------------  ------- ------- ------------------                        ---------------------
00008.MPLS                                                      AVC     0:05:28 784 269 312     24 317 574 608  19,09   18,00   DD AC3 2.0 224Kbps
Код:
DISC INFO:
Disc Title:     GIPSY_KINGS
Disc Size:      24 317 574 608 bytes
Protection:     AACS
BD-Java:        No
BDInfo:         0.5.8
PLAYLIST REPORT:
Name:                   00008.MPLS
Length:                 0:05:28.583 (h:m:s.ms)
Size:                   784 269 312 bytes
Total Bitrate:          19,09 Mbps
VIDEO:
Codec                   Bitrate             Description
-----                   -------             -----------
MPEG-4 AVC Video        17999 kbps          1080p / 24 fps / 16:9 / High Profile 4.1
AUDIO:
Codec                           Language        Bitrate         Description
-----                           --------        -------         -----------
Dolby Digital Audio             Spanish         224 kbps        2.0 / 48 kHz / 224 kbps / DN -4dB
FILES:
Name            Time In         Length          Size            Total Bitrate
----            -------         ------          ----            -------------
00011.M2TS      0:00:00.000     0:05:28.583     784 269 312     19 095
CHAPTERS:
Number          Time In         Length          Avg Video Rate  Max 1-Sec Rate  Max 1-Sec Time  Max 5-Sec Rate  Max 5-Sec Time  Max 10Sec Rate  Max 10Sec Time  Avg Frame Size  Max Frame Size  Max Frame Time
------          -------         ------          --------------  --------------  --------------  --------------  --------------  --------------  --------------  --------------  --------------  --------------
1               0:00:00.000     0:05:28.583     17 999 kbps     30 469 kbps     00:05:14.916    28 627 kbps     00:05:14.208    27 778 kbps     00:05:13.374    93 744 bytes    337 158 bytes   00:05:23.416
STREAM DIAGNOSTICS:
File            PID             Type            Codec           Language                Seconds                 Bitrate                 Bytes           Packets
----            ---             ----            -----           --------                --------------          --------------          -------------   -----
00011.M2TS      4113 (0x1011)   0x1B            AVC                                     328,417                 18 008                  739 267 767     4 022 346
00011.M2TS      4352 (0x1100)   0x81            AC3             spa (Spanish)           328,417                 224                     9 201 024       51 345
<---- END FORUMS PASTE ---->
QUICK SUMMARY:
Disc Title: GIPSY_KINGS
Disc Size: 24 317 574 608 bytes
Protection: AACS
BD-Java: No
Playlist: 00008.MPLS
Size: 784 269 312 bytes
Length: 0:05:28.583
Total Bitrate: 19,09 Mbps
Video: MPEG-4 AVC Video / 17999 kbps / 1080p / 24 fps / 16:9 / High Profile 4.1
Audio: Spanish / Dolby Digital Audio / 2.0 / 48 kHz / 224 kbps / DN -4dB
********************
PLAYLIST: 00009.MPLS
********************
<--- BEGIN FORUMS PASTE --->
Код:
Total   Video
Title                                                           Codec   Length  Movie Size      Disc Size       Bitrate Bitrate Main Audio Track                          Secondary Audio Track
-----                                                           ------  ------- --------------  --------------  ------- ------- ------------------                        ---------------------
00009.MPLS                                                      AVC     0:04:28 641 581 056     24 317 574 608  19,10   18,00   DD AC3 2.0 224Kbps
Код:
DISC INFO:
Disc Title:     GIPSY_KINGS
Disc Size:      24 317 574 608 bytes
Protection:     AACS
BD-Java:        No
BDInfo:         0.5.8
PLAYLIST REPORT:
Name:                   00009.MPLS
Length:                 0:04:28.768 (h:m:s.ms)
Size:                   641 581 056 bytes
Total Bitrate:          19,10 Mbps
VIDEO:
Codec                   Bitrate             Description
-----                   -------             -----------
MPEG-4 AVC Video        18001 kbps          1080p / 23,976 fps / 16:9 / High Profile 4.1
AUDIO:
Codec                           Language        Bitrate         Description
-----                           --------        -------         -----------
Dolby Digital Audio             Spanish         224 kbps        2.0 / 48 kHz / 224 kbps / DN -4dB
FILES:
Name            Time In         Length          Size            Total Bitrate
----            -------         ------          ----            -------------
00012.M2TS      0:00:00.000     0:04:28.768     641 581 056     19 097
CHAPTERS:
Number          Time In         Length          Avg Video Rate  Max 1-Sec Rate  Max 1-Sec Time  Max 5-Sec Rate  Max 5-Sec Time  Max 10Sec Rate  Max 10Sec Time  Avg Frame Size  Max Frame Size  Max Frame Time
------          -------         ------          --------------  --------------  --------------  --------------  --------------  --------------  --------------  --------------  --------------  --------------
1               0:00:00.000     0:04:28.768     18 001 kbps     40 291 kbps     00:00:49.048    32 691 kbps     00:00:49.048    26 972 kbps     00:00:48.965    93 851 bytes    377 787 bytes   00:00:50.425
STREAM DIAGNOSTICS:
File            PID             Type            Codec           Language                Seconds                 Bitrate                 Bytes           Packets
----            ---             ----            -----           --------                --------------          --------------          -------------   -----
00012.M2TS      4113 (0x1011)   0x1B            AVC                                     268,685                 18 007                  604 774 859     3 290 530
00012.M2TS      4352 (0x1100)   0x81            AC3             spa (Spanish)           268,685                 224                     7 526 400       42 000
<---- END FORUMS PASTE ---->
QUICK SUMMARY:
Disc Title: GIPSY_KINGS
Disc Size: 24 317 574 608 bytes
Protection: AACS
BD-Java: No
Playlist: 00009.MPLS
Size: 641 581 056 bytes
Length: 0:04:28.768
Total Bitrate: 19,10 Mbps
Video: MPEG-4 AVC Video / 18001 kbps / 1080p / 23,976 fps / 16:9 / High Profile 4.1
Audio: Spanish / Dolby Digital Audio / 2.0 / 48 kHz / 224 kbps / DN -4dB
********************
PLAYLIST: 00011.MPLS
********************
<--- BEGIN FORUMS PASTE --->
Код:
Total   Video
Title                                                           Codec   Length  Movie Size      Disc Size       Bitrate Bitrate Main Audio Track                          Secondary Audio Track
-----                                                           ------  ------- --------------  --------------  ------- ------- ------------------                        ---------------------
00011.MPLS                                                      AVC     0:02:59 429 379 584     24 317 574 608  19,10   18,01   DD AC3 2.0 224Kbps
Код:
DISC INFO:
Disc Title:     GIPSY_KINGS
Disc Size:      24 317 574 608 bytes
Protection:     AACS
BD-Java:        No
BDInfo:         0.5.8
PLAYLIST REPORT:
Name:                   00011.MPLS
Length:                 0:02:59.804 (h:m:s.ms)
Size:                   429 379 584 bytes
Total Bitrate:          19,10 Mbps
VIDEO:
Codec                   Bitrate             Description
-----                   -------             -----------
MPEG-4 AVC Video        18008 kbps          1080p / 23,976 fps / 16:9 / High Profile 4.1
AUDIO:
Codec                           Language        Bitrate         Description
-----                           --------        -------         -----------
Dolby Digital Audio             Spanish         224 kbps        2.0 / 48 kHz / 224 kbps / DN -4dB
FILES:
Name            Time In         Length          Size            Total Bitrate
----            -------         ------          ----            -------------
00014.M2TS      0:00:00.000     0:02:59.804     429 379 584     19 104
CHAPTERS:
Number          Time In         Length          Avg Video Rate  Max 1-Sec Rate  Max 1-Sec Time  Max 5-Sec Rate  Max 5-Sec Time  Max 10Sec Rate  Max 10Sec Time  Avg Frame Size  Max Frame Size  Max Frame Time
------          -------         ------          --------------  --------------  --------------  --------------  --------------  --------------  --------------  --------------  --------------  --------------
1               0:00:00.000     0:02:59.804     18 008 kbps     30 302 kbps     00:02:00.411    25 876 kbps     00:01:59.828    22 839 kbps     00:01:55.990    93 885 bytes    405 457 bytes   00:02:47.667
STREAM DIAGNOSTICS:
File            PID             Type            Codec           Language                Seconds                 Bitrate                 Bytes           Packets
----            ---             ----            -----           --------                --------------          --------------          -------------   -----
00014.M2TS      4113 (0x1011)   0x1B            AVC                                     179,680                 18 021                  404 739 997     2 202 192
00014.M2TS      4352 (0x1100)   0x81            AC3             spa (Spanish)           179,680                 224                     5 036 416       28 105
<---- END FORUMS PASTE ---->
QUICK SUMMARY:
Disc Title: GIPSY_KINGS
Disc Size: 24 317 574 608 bytes
Protection: AACS
BD-Java: No
Playlist: 00011.MPLS
Size: 429 379 584 bytes
Length: 0:02:59.804
Total Bitrate: 19,10 Mbps
Video: MPEG-4 AVC Video / 18008 kbps / 1080p / 23,976 fps / 16:9 / High Profile 4.1
Audio: Spanish / Dolby Digital Audio / 2.0 / 48 kHz / 224 kbps / DN -4dB
********************
PLAYLIST: 00002.MPLS
********************
<--- BEGIN FORUMS PASTE --->
Код:
Total   Video
Title                                                           Codec   Length  Movie Size      Disc Size       Bitrate Bitrate Main Audio Track                          Secondary Audio Track
-----                                                           ------  ------- --------------  --------------  ------- ------- ------------------                        ---------------------
00002.MPLS                                                      AVC     0:02:52 579 631 104     24 317 574 608  26,87   23,92   LPCM 2.0 1536Kbps (48kHz/16-bit)
Код:
DISC INFO:
Disc Title:     GIPSY_KINGS
Disc Size:      24 317 574 608 bytes
Protection:     AACS
BD-Java:        No
BDInfo:         0.5.8
PLAYLIST REPORT:
Name:                   00002.MPLS
Length:                 0:02:52.547 (h:m:s.ms)
Size:                   579 631 104 bytes
Total Bitrate:          26,87 Mbps
VIDEO:
Codec                   Bitrate             Description
-----                   -------             -----------
MPEG-4 AVC Video        23918 kbps          1080p / 23,976 fps / 16:9 / High Profile 4.1
AUDIO:
Codec                           Language        Bitrate         Description
-----                           --------        -------         -----------
LPCM Audio                      Spanish         1536 kbps       2.0 / 48 kHz / 1536 kbps / 16-bit
FILES:
Name            Time In         Length          Size            Total Bitrate
----            -------         ------          ----            -------------
00003.M2TS      0:00:00.000     0:02:52.547     579 631 104     26 874
CHAPTERS:
Number          Time In         Length          Avg Video Rate  Max 1-Sec Rate  Max 1-Sec Time  Max 5-Sec Rate  Max 5-Sec Time  Max 10Sec Rate  Max 10Sec Time  Avg Frame Size  Max Frame Size  Max Frame Time
------          -------         ------          --------------  --------------  --------------  --------------  --------------  --------------  --------------  --------------  --------------  --------------
1               0:00:00.000     0:02:52.547     23 918 kbps     38 073 kbps     00:00:02.877    31 994 kbps     00:00:01.668    28 927 kbps     00:00:00.333    124 696 bytes   550 351 bytes   00:02:11.297
STREAM DIAGNOSTICS:
File            PID             Type            Codec           Language                Seconds                 Bitrate                 Bytes           Packets
----            ---             ----            -----           --------                --------------          --------------          -------------   -----
00003.M2TS      4113 (0x1011)   0x1B            AVC                                     172,422                 23 935                  515 869 357     2 806 056
00003.M2TS      4352 (0x1100)   0x80            LPCM            spa (Spanish)           172,422                 1 544                   33 267 640      207 060
<---- END FORUMS PASTE ---->
QUICK SUMMARY:
Disc Title: GIPSY_KINGS
Disc Size: 24 317 574 608 bytes
Protection: AACS
BD-Java: No
Playlist: 00002.MPLS
Size: 579 631 104 bytes
Length: 0:02:52.547
Total Bitrate: 26,87 Mbps
Video: MPEG-4 AVC Video / 23918 kbps / 1080p / 23,976 fps / 16:9 / High Profile 4.1
Audio: Spanish / LPCM Audio / 2.0 / 48 kHz / 1536 kbps / 16-bit
********************
PLAYLIST: 00001.MPLS
********************
<--- BEGIN FORUMS PASTE --->
Код:
Total   Video
Title                                                           Codec   Length  Movie Size      Disc Size       Bitrate Bitrate Main Audio Track                          Secondary Audio Track
-----                                                           ------  ------- --------------  --------------  ------- ------- ------------------                        ---------------------
00001.MPLS                                                      MPEG-2  0:02:11 108 478 464     24 317 574 608  6,58    6,00    DD AC3 2.0 224Kbps
Код:
DISC INFO:
Disc Title:     GIPSY_KINGS
Disc Size:      24 317 574 608 bytes
Protection:     AACS
BD-Java:        No
BDInfo:         0.5.8
PLAYLIST REPORT:
Name:                   00001.MPLS
Length:                 0:02:11.931 (h:m:s.ms)
Size:                   108 478 464 bytes
Total Bitrate:          6,58 Mbps
VIDEO:
Codec                   Bitrate             Description
-----                   -------             -----------
MPEG-2 Video            5999 kbps           480i / 29,970 fps / 4:3
AUDIO:
Codec                           Language        Bitrate         Description
-----                           --------        -------         -----------
Dolby Digital Audio             Spanish         224 kbps        2.0 / 48 kHz / 224 kbps / DN -4dB
FILES:
Name            Time In         Length          Size            Total Bitrate
----            -------         ------          ----            -------------
00009.M2TS      0:00:00.000     0:02:11.931     108 478 464     6 578
CHAPTERS:
Number          Time In         Length          Avg Video Rate  Max 1-Sec Rate  Max 1-Sec Time  Max 5-Sec Rate  Max 5-Sec Time  Max 10Sec Rate  Max 10Sec Time  Avg Frame Size  Max Frame Size  Max Frame Time
------          -------         ------          --------------  --------------  --------------  --------------  --------------  --------------  --------------  --------------  --------------  --------------
1               0:00:00.000     0:02:11.931     5 999 kbps      6 726 kbps      00:01:36.596    6 152 kbps      00:00:00.033    6 070 kbps      00:00:40.807    25 019 bytes    99 560 bytes    00:01:14.073
STREAM DIAGNOSTICS:
File            PID             Type            Codec           Language                Seconds                 Bitrate                 Bytes           Packets
----            ---             ----            -----           --------                --------------          --------------          -------------   -----
00009.M2TS      4113 (0x1011)   0x02            MPEG-2                                  131,832                 6 003                   98 925 756      539 948
00009.M2TS      4352 (0x1100)   0x81            AC3             spa (Spanish)           131,832                 224                     3 689 728       20 590
<---- END FORUMS PASTE ---->
QUICK SUMMARY:
Disc Title: GIPSY_KINGS
Disc Size: 24 317 574 608 bytes
Protection: AACS
BD-Java: No
Playlist: 00001.MPLS
Size: 108 478 464 bytes
Length: 0:02:11.931
Total Bitrate: 6,58 Mbps
Video: MPEG-2 Video / 5999 kbps / 480i / 29,970 fps / 4:3
Audio: Spanish / Dolby Digital Audio / 2.0 / 48 kHz / 224 kbps / DN -4dB
Скриншоты меню
Скриншоты
Данный релиз предназначен для ознакомления.
Ознакомился сам? Не забудь позаботиться о ближнем - помоги ознакомиться и ему, продолжая сидировать. И будет тебе счастье обнаружить новые интересные релизы в будущем.
Download
Для скачивания .torrent файлов необходима регистрация
Сайт не распространяет и не хранит электронные версии произведений, а лишь предоставляет доступ к создаваемому пользователями каталогу ссылок на торрент-файлы, которые содержат только списки хеш-сумм
[Профиль]  [ЛС] 

betoxfx

Стаж: 9 лет 7 месяцев

Сообщений: 319


betoxfx · 14-Дек-16 01:55 (спустя 1 месяц 10 дней)

Please more SEED, and more BAND, for download, please.
Thanks a lot dear mates :).
[Профиль]  [ЛС] 

shikasta

Стаж: 5 лет

Сообщений: 15


shikasta · 11-Янв-17 12:37 (спустя 28 дней)

Уважаемый CHKA1961!
Возобнови, пожалуйста, раздачу! Очень хочется получить этот концерт!
[Профиль]  [ЛС] 

CHKA1961

Moderator gray

Стаж: 12 лет

Сообщений: 6924

CHKA1961 · 12-Янв-17 12:30 (спустя 23 часа)

shikasta писал(а):
72211215Уважаемый CHKA1961!
Возобнови, пожалуйста, раздачу! Очень хочется получить этот концерт!
Подключился.
[Профиль]  [ЛС] 

Tomber

Стаж: 11 лет 3 месяца

Сообщений: 26

Tomber · 25-Апр-19 21:09 (спустя 2 года 3 месяца)

Раздайте,пожалуйста
[Профиль]  [ЛС] 
 
Ответить
Loading...
Error